Genre: Game-Show \ Reality-TV Age Rating: TV-PG Quality: WebRip Rating: 7.0
 Hell's Kitchen (2005) (View More Info)
IMDB User Ratings: 7.0 (17445 votes)
Hell's Kitchen 2005 Cover
DirectorsSharon Trojan Hollinger Mark W. Roden Philip Abatecola Thomas LoureiroMusicDavid Vanacore
Year 2005Runtime 0 Hour 42 Minutes
Country USAProduction Arthur Smith Kent Weed Cynthia Valle
IMDB Rating 7.0Language English
Genre Game-Show, Reality-TV CastGordon Ramsay , Jason Thompson , Andi Van Willigan
 Summary
World renowned chef Gordon Ramsay puts aspiring young chefs through rigorous cooking challenges and dinner services at his restaurant in Hollywood, "Hell's Kitchen", to determine which one of them will win the head chef position at one of his restaurants or a restaurant located worldwide.


World renowned chef Gordon Ramsay puts aspiring young chefs through rigorous cooking challenges and dinner services at his...
Code:
http://www.imdb.com/title/tt0437005/
Code:
Format                                   : Matroska
Format version                           : Version 4
File size                                : 658 MiB
Duration                                 : 39 min 36 s
Overall bit rate                         : 2 324 kb/s
Movie name                               : SNAKE@IPT
Encoded date                             : UTC 2020-04-05 18:02:01
Writing application                      : mkvmerge v44.0.0 ('Domino') 64-bit
Writing library                          : libebml v1.3.10 + libmatroska v1.5.2

Video
ID                                       : 1
Format                                   : AVC
Format/Info                              : Advanced Video Codec
Format profile                           : High@L4.1
Format settings                          : CABAC / 2 Ref Frames
Format settings, CABAC                   : Yes
Format settings, Reference frames        : 2 frames
Format settings, GOP                     : M=3, N=24
Codec ID                                 : V_MPEG4/ISO/AVC
Duration                                 : 39 min 35 s
Bit rate                                 : 2 139 kb/s
Width                                    : 720 pixels
Height                                   : 540 pixels
Display aspect ratio                     : 4:3
Frame rate mode                          : Constant
Frame rate                               : 30.000 FPS
Color space                              : YUV
Chroma subsampling                       : 4:2:0
Bit depth                                : 8 bits
Scan type                                : Progressive
Bits/(Pixel*Frame)                       : 0.183
Stream size                              : 603 MiB (92%)
Writing library                          : x264 core 142
Encoding settings                        : cabac=1 / ref=1 / deblock=1:-1:-1 / analyse=0x3:0 / me=hex / subme=5 / psy=0 / mixed_ref=0 / me_range=16 / chroma_me=1 / trellis=0 / 8x8dct=1 / cqm=0 / deadzone=21,11 / fast_pskip=0 / chroma_qp_offset=0 / threads=12 / lookahead_threads=3 / sliced_threads=0 / nr=0 / decimate=1 / interlaced=0 / bluray_compat=0 / constrained_intra=0 / bframes=2 / b_pyramid=0 / b_adapt=1 / b_bias=0 / direct=1 / weightb=0 / open_gop=0 / weightp=0 / keyint=24 / keyint_min=13 / scenecut=40 / intra_refresh=0 / rc=abr / mbtree=0 / bitrate=2139 / ratetol=1.0 / qcomp=0.60 / qpmin=0 / qpmax=69 / qpstep=4 / ip_ratio=1.40 / pb_ratio=1.30 / aq=1:1.00
Default                                  : Yes
Forced                                   : No
Color range                              : Limited
Color primaries                          : BT.601 NTSC
Transfer characteristics                 : BT.709
Matrix coefficients                      : BT.601

Audio
ID                                       : 2
Format                                   : AC-3
Format/Info                              : Audio Coding 3
Commercial name                          : Dolby Digital
Codec ID                                 : A_AC3
Duration                                 : 39 min 36 s
Bit rate mode                            : Constant
Bit rate                                 : 192 kb/s
Channel(s)                               : 2 channels
Channel layout                           : L R
Sampling rate                            : 48.0 kHz
Frame rate                               : 31.250 FPS (1536 SPF)
Compression mode                         : Lossy
Stream size                              : 54.4 MiB (8%)
Language                                 : English
Service kind                             : Complete Main
Default                                  : Yes
Forced                                   : No

Text
ID                                       : 3
Format                                   : UTF-8
Codec ID                                 : S_TEXT/UTF8
Codec ID/Info                            : UTF-8 Plain Text
Duration                                 : 38 min 41 s
Bit rate                                 : 102 b/s
Count of elements                        : 937
Stream size                              : 29.2 KiB (0%)
Language                                 : English
Code:
https://rapidgator.net/file/e2a91a64966bbd7c69c45b861100de27/Hells_Kitchen_S01_WEBRip_X264_Ac3_SNAKE.part1.rar.html
https://rapidgator.net/file/233e95892c33bc115af37e66d2a1140d/Hells_Kitchen_S01_WEBRip_X264_Ac3_SNAKE.part2.rar.html
https://rapidgator.net/file/f06d5f4edfdafc37f72acede3650d5e6/Hells_Kitchen_S01_WEBRip_X264_Ac3_SNAKE.part3.rar.html
https://rapidgator.net/file/aea7280f72981ee22c850b7e506a41f2/Hells_Kitchen_S01_WEBRip_X264_Ac3_SNAKE.part4.rar.html