Genre: Drama Age Rating: R Rating: 7.0
 Queen & Slim (2019) (View More Info)
IMDB User Ratings: 7.0 (5758 votes)
Queen & Slim 2019 Cover
DirectorMelina MatsoukasMusic
Year 2019Runtime 2 Hour 12 Minutes
Country Canada, USAProduction Pamela Abdy Guymon Casady Reginald Cash
IMDB Rating 7.0Language English
Genre Drama CastDaniel Kaluuya , Jodie Turner-Smith , Bokeem Woodbine
 Summary
Slim and Queen's first date takes an unexpected turn when a policeman pulls them over for a minor traffic violation. When the situation escalates, Slim takes the officer's gun and shoots him in self-defence. Now labelled cop killers in the media, Slim and Queen feel that they have no choice but to go on the run and evade the law. When a video of the incident goes viral, the unwitting outlaws soon become a symbol of trauma, terror, grief and pain for people all across the country


Plot Queen & Slim is a movie starring Daniel Kaluuya, Jodie Turner-Smith, and Bokeem Woodbine. A couples first date takes an unexpected turn when a police officer pulls them over.
Actors Daniel Kaluuya, Jodie Turner-Smith, Bokeem Woodbine, ChloŽ Sevigny, Flea, Sturgill Simpson, Indya Moore, Benito Martinez, Jahi Di'Allo Winston, Gralen Bryant Banks, Dickson Obahor, Bryant Tardy, Thom Gossom Jr., Melanie Halfkenny, Brian Thornton
Code:
http://www.imdb.com/title/tt8722346/
Code:
Format                                   : MPEG-4
Format profile                           : Base Media / Version 2
Codec ID                                 : mp42 (mp42/isom/avc1)
File size                                : 689 MiB
Duration                                 : 2 h 12 min
Overall bit rate mode                    : Variable
Overall bit rate                         : 727 kb/s
Encoded date                             : UTC 2019-12-18 19:07:54
Tagged date                              : UTC 2019-12-18 19:26:35
Writing application                      : HandBrake 6214svn 2014061701

Video
ID                                       : 1
Format                                   : AVC
Format/Info                              : Advanced Video Codec
Format profile                           : High@L3
Format settings                          : CABAC / 4 Ref Frames
Format settings, CABAC                   : Yes
Format settings, Reference frames        : 4 frames
Codec ID                                 : avc1
Codec ID/Info                            : Advanced Video Coding
Duration                                 : 2 h 12 min
Bit rate                                 : 558 kb/s
Width                                    : 720 pixels
Height                                   : 352 pixels
Display aspect ratio                     : 2.40:1
Frame rate mode                          : Variable
Frame rate                               : 23.976 (24000/1001) FPS
Minimum frame rate                       : 19.978 FPS
Maximum frame rate                       : 29.970 FPS
Color space                              : YUV
Chroma subsampling                       : 4:2:0
Bit depth                                : 8 bits
Scan type                                : Progressive
Bits/(Pixel*Frame)                       : 0.092
Stream size                              : 529 MiB (77%)
Writing library                          : x264 core 142 r2431 ac76440
Encoding settings                        : cabac=1 / ref=3 / deblock=1:0:0 / analyse=0x3:0x113 / me=hex / subme=7 / psy=1 / psy_rd=1.00:0.00 / mixed_ref=1 / me_range=16 / chroma_me=1 / trellis=1 / 8x8dct=1 / cqm=0 / deadzone=21,11 / fast_pskip=1 / chroma_qp_offset=-2 / threads=12 / lookahead_threads=2 / sliced_threads=0 / nr=0 / decimate=1 / interlaced=0 / bluray_compat=0 / constrained_intra=0 / bframes=3 / b_pyramid=2 / b_adapt=1 / b_bias=0 / direct=1 / weightb=1 / open_gop=0 / weightp=2 / keyint=240 / keyint_min=24 / scenecut=40 / intra_refresh=0 / rc_lookahead=40 / rc=crf / mbtree=1 / crf=20.0 / qcomp=0.60 / qpmin=0 / qpmax=69 / qpstep=4 / ip_ratio=1.40 / aq=1:1.00
Encoded date                             : UTC 2019-12-18 19:07:54
Tagged date                              : UTC 2019-12-18 19:26:35
Color range                              : Limited
Color primaries                          : BT.601 NTSC
Transfer characteristics                 : BT.709
Matrix coefficients                      : BT.601
Menus                                    : 7
Codec configuration box                  : avcC

Audio
ID                                       : 2
Format                                   : AAC LC
Format/Info                              : Advanced Audio Codec Low Complexity
Codec ID                                 : mp4a-40-2
Duration                                 : 2 h 12 min
Bit rate mode                            : Variable
Bit rate                                 : 162 kb/s
Maximum bit rate                         : 256 kb/s
Channel(s)                               : 2 channels
Channel layout                           : L R
Sampling rate                            : 48.0 kHz
Frame rate                               : 46.875 FPS (1024 SPF)
Compression mode                         : Lossy
Stream size                              : 154 MiB (22%)
Title                                    : Stereo
Language                                 : English
Encoded date                             : UTC 2019-12-18 19:07:54
Tagged date                              : UTC 2019-12-18 19:26:35

Text #1
ID                                       : 3
Format                                   : Timed Text
Muxing mode                              : sbtl
Codec ID                                 : tx3g
Duration                                 : 2 h 6 min
Bit rate mode                            : Variable
Bit rate                                 : 50 b/s
Stream size                              : 46.0 KiB (0%)
Language                                 : English
Default                                  : Yes
Forced                                   : No
Alternate group                          : 2
Encoded date                             : UTC 2019-12-18 19:07:54
Tagged date                              : UTC 2019-12-18 19:25:57

Text #2
ID                                       : 4
Format                                   : Timed Text
Muxing mode                              : sbtl
Codec ID                                 : tx3g
Duration                                 : 2 h 12 min
Bit rate mode                            : Variable
Bit rate                                 : 23 b/s
Stream size                              : 22.2 KiB (0%)
Language                                 : French
Default                                  : No
Forced                                   : No
Alternate group                          : 2
Encoded date                             : UTC 2019-12-18 19:07:54
Tagged date                              : UTC 2019-12-18 19:26:35

Text #3
ID                                       : 5
Format                                   : Timed Text
Muxing mode                              : sbtl
Codec ID                                 : tx3g
Duration                                 : 2 h 12 min
Bit rate mode                            : Variable
Bit rate                                 : 17 b/s
Stream size                              : 16.7 KiB (0%)
Language                                 : Spanish
Default                                  : No
Forced                                   : No
Alternate group                          : 2
Encoded date                             : UTC 2019-12-18 19:07:54
Tagged date                              : UTC 2019-12-18 19:26:35

Text #4
ID                                       : 6
Format                                   : Timed Text
Muxing mode                              : sbtl
Codec ID                                 : tx3g
Duration                                 : 2 h 12 min
Bit rate mode                            : Variable
Bit rate                                 : 29 b/s
Stream size                              : 28.5 KiB (0%)
Language                                 : Italian
Default                                  : No
Forced                                   : No
Code:
https://rapidgator.net/file/a4b106eeaaca3c1f8abf08baf48e6457/Queen.And.Slim.2019.QuerySCR_x264-TOPKEK.mp4.rar.html