Genre: Horror \ Thriller Age Rating: 16 Quality: BluRay Rating: 7.8
 Halloween (1978) (More Info)
IMDB User Ratings: 7.8 (183977 votes)
Halloween 1978 Cover
DirectorJohn CarpenterMusicJohn Carpenter
Year 1978Runtime 1 Hour 31 Minutes
Country USAProducer Debra Hill ,Kool Marder ,Irwin Yablans ,Moustapha Akkad ....
IMDb Rating 7.8Language English
Genre Horror, Thriller CastDonald Pleasence , Jamie Lee Curtis , Nancy Kyes , P.J. Soles ....
 Summary
The year is 1963, the night: Halloween. Police are called to 43 Lampkin Ln. only to discover that 15 year old Judith Myers has been stabbed to death, by her 6 year-old brother, Michael. After being institutionalized for 15 years, Myers breaks out on the night before Halloween. No one knows, nor wants to find out, what will happen on October 31st 1978 besides Myers' psychiatrist, Dr. Loomis. He knows Michael is coming back to Haddonfield, but by the time the town realizes it, it'll be too late for many people.


Genre Horror, Thriller
Plot ering his sister on Halloween night 1963, Michael Myers escapes from a mental hospital and returns to the small town of...
Actors Donald Pleasence, Jamie Lee Curtis, Nancy Kyes, P.J. Soles, Charles Cyphers, Kyle Richards, Brian Andrews, John Michael Graham, Nancy Stephens, Arthur Malet, Mickey Yablans, Brent Le Page, Adam Hollander, Robert Phalen, Tony Moran

Code:
http://www.imdb.com/title/tt0077651/
Code:
Format                                   : MPEG-4
Format profile                           : Base Media / Version 2
Codec ID                                 : mp42 (mp42/isom/avc1)
File size                                : 4.11 GiB
Duration                                 : 1h 31mn
Overall bit rate mode                    : Variable
Overall bit rate                         : 6 431 Kbps
Movie name                               : Halloween.1978.REMASTERED.1080p.BluRay.H264.AC3.DD5.1
Encoded date                             : UTC 2019-10-19 01:40:12
Tagged date                              : UTC 2019-10-19 01:59:03
Writing application                      : DVDFab 11.0.4.2
Cover                                    : Yes

Video
ID                                       : 1
Format                                   : AVC
Format/Info                              : Advanced Video Codec
Format profile                           : Main@L4
Format settings, CABAC                   : Yes
Format settings, ReFrames                : 4 frames
Format settings, GOP                     : M=1, N=12
Codec ID                                 : avc1
Codec ID/Info                            : Advanced Video Coding
Duration                                 : 1h 31mn
Bit rate                                 : 5 784 Kbps
Width                                    : 1 920 pixels
Height                                   : 816 pixels
Display aspect ratio                     : 2.35:1
Frame rate mode                          : Constant
Frame rate                               : 23.976 (24000/1001) fps
Standard                                 : Component
Color space                              : YUV
Chroma subsampling                       : 4:2:0
Bit depth                                : 8 bits
Scan type                                : Progressive
Bits/(Pixel*Frame)                       : 0.154
Stream size                              : 3.70 GiB (90%)
Encoded date                             : UTC 2019-10-19 01:40:12
Tagged date                              : UTC 2019-10-19 01:59:02
Color range                              : Limited
Color primaries                          : BT.709
Transfer characteristics                 : BT.709
Matrix coefficients                      : BT.709

Audio
ID                                       : 2
Format                                   : AC-3
Format/Info                              : Audio Coding 3
Mode extension                           : CM (complete main)
Format settings, Endianness              : Big
Codec ID                                 : ac-3
Duration                                 : 1h 31mn
Bit rate mode                            : Constant
Bit rate                                 : 640 Kbps
Channel(s)                               : 6 channels
Channel positions                        : Front: L C R, Side: L R, LFE
Sampling rate                            : 48.0 KHz
Frame rate                               : 31.250 fps (1536 spf)
Bit depth                                : 16 bits
Compression mode                         : Lossy
Stream size                              : 419 MiB (10%)
Title                                    : English (ac3 5.1)
Language                                 : English
Default                                  : Yes
Alternate group                          : 1
Encoded date                             : UTC 2019-10-19 01:40:12
Tagged date                              : UTC 2019-10-19 01:59:02

Text
ID                                       : 3
Format                                   : mp4s
Codec ID                                 : E0
Duration                                 : 1h 27mn
Bit rate mode                            : Variable
Bit rate                                 : 4 585 bps
Maximum bit rate                         : 4 118 Mbps
Stream size                              : 2.88 MiB (0%)
Language                                 : English
Default                                  : Yes
Forced                                   : No
Code:
https://rapidgator.net/file/c80e9b08c8478e8e37bb356004abc525/Halloween.1978.REMASTERED.1080p.BluRay.H264.AC3.DD5.1.mp4.part1.rar.html
https://rapidgator.net/file/9cd418345bb30fb09e936e60c0073341/Halloween.1978.REMASTERED.1080p.BluRay.H264.AC3.DD5.1.mp4.part2.rar.html
https://rapidgator.net/file/dc7619cb50544769e410a541aa44b6fe/Halloween.1978.REMASTERED.1080p.BluRay.H264.AC3.DD5.1.mp4.part3.rar.html