Results 1 to 5 of 5

Thread: Queen of the South 2016 S03

  1. #1

    Default Queen of the South 2016 S03

    Hi I was in search of the entire season of 3 the usa show. I located some on here but they have since then died. I am looking for AMZN 720P rips because I like the subs built in since i have hearing problems.

    Download to fast and free site or if there is a working torrent for all.
    720P AMZN rips please

    Thank you in advance

  2. #2
    Join Date
    Jul 2015
    Location
    Under your bed
    Posts
    25,531

    Default

    I found these

    Queen.of.the.South.S03.1080p.AMZN.WEB-DL.DDP5.1.H.264-NTb ~ 36.9 GB

    Code:
    http://uploaded.net/file/vwofrx6r/QenofthSoth000MZELDP64NTb3GB.part01.rar
    http://uploaded.net/file/vfo9rxbp/QenofthSoth000MZELDP64NTb3GB.part02.rar
    http://uploaded.net/file/uehsrb8t/QenofthSoth000MZELDP64NTb3GB.part03.rar
    http://uploaded.net/file/vzyhs8iv/QenofthSoth000MZELDP64NTb3GB.part04.rar
    http://uploaded.net/file/3gt9ngrh/QenofthSoth000MZELDP64NTb3GB.part05.rar
    http://uploaded.net/file/vucknsnk/QenofthSoth000MZELDP64NTb3GB.part06.rar
    http://uploaded.net/file/5lxrpksd/QenofthSoth000MZELDP64NTb3GB.part07.rar
    http://uploaded.net/file/m139geb3/QenofthSoth000MZELDP64NTb3GB.part08.rar
    http://uploaded.net/file/pie8p89x/QenofthSoth000MZELDP64NTb3GB.part09.rar

  3. #3

    Default

    thanks is there by chance a 720p version?

  4. #4

    Default

    I have these let me know if these will work and I will upload them.

    Format : AVI
    Format/Info : Audio Video Interleave
    File size : 320 MiB
    Duration : 40 min 11 s
    Overall bit rate : 1 114 kb/s
    Writing application : Lavf57.81.100

    Video
    ID : 0
    Format : xvid
    Codec ID : xvid
    Duration : 40 min 11 s
    Bit rate : 973 kb/s
    Width : 640 pixels
    Height : 360 pixels
    Display aspect ratio : 16:9
    Frame rate : 23.976 (24000/1001) FPS
    Scan type : Progressive
    Bits/(Pixel*Frame) : 0.176
    Stream size : 280 MiB (87%)

    Audio
    ID : 1
    Format : MPEG Audio
    Format version : Version 1
    Format profile : Layer 3
    Format settings : Joint stereo / MS Stereo
    Codec ID : 55
    Codec ID/Hint : MP3
    Duration : 40 min 11 s
    Bit rate mode : Constant
    Bit rate : 128 kb/s
    Channel(s) : 2 channels
    Sampling rate : 48.0 kHz
    Compression mode : Lossy
    Stream size : 36.8 MiB (11%)
    Alignment : Aligned on interleaves
    Interleave, duration : 24 ms (0.58 video frame)
    Interleave, preload duration : 24 ms

  5. #5

    Default

    thank you but i have found the whole season on nitro or upload i just got to get them converted to smaller size. right now they are 4.5gb each